百度云資源論壇

 找回密碼
 立即注冊
搜索
打印 上一主題 下一主題

[4K-原盤] 世界之戰/世界大戰 War.of.the.Worlds.2005.2160p.BluRay.REMUX.HEVC.DTS-...

[復制鏈接]
跳轉到指定樓層
樓主
帖子完整標題:世界之戰/世界大戰 War.of.the.Worlds.2005.2160p.BluRay.REMUX.HEVC.DTS-HD.MA.TrueHD.7.1.Atmos-FGT 62.41GB




◎譯  名 世界之戰 / 世界大戰 / 宇宙戰爭 / 強戰世界 / 星際戰爭
◎片  名 War of the Worlds
◎年  代 2005
◎產  地 美國
◎類  別 科幻 / 驚悚 / 災難
◎語  言 英語
◎上映日期 2005-06-29(美國) / 2005-08-25(中國大陸)
◎IMDb評分  6.5/10 from 404246 users
◎片  長 116分鐘
◎導  演 史蒂文·斯皮爾伯格 Steven Spielberg
◎編  劇 喬什·弗萊德曼 Josh Friedman / 大衛·凱普 David Koepp / 赫伯特·喬治·威爾斯 H.G. Wells
◎主  演 湯姆·克魯斯 Tom Cruise
       達科塔·范寧 Dakota Fanning
       米蘭達·奧圖 Miranda Otto
       賈斯汀·查特文 Justin Chatwin
       蒂姆·羅賓斯 Tim Robbins
       瑞克·岡薩雷斯 Rick Gonzalez
       尤爾·瓦斯克斯 Yul Vazquez
       萊尼·維尼托 Lenny Venito
       麗薩·安·沃爾特 Lisa Ann Walter
       安·魯濱遜 Ann Robinson
       吉恩·巴瑞 Gene Barry
       大衛·阿倫·伯施理 David Alan Basche
       羅茲·亞布拉姆斯 Roz Abrams
       邁克爾·布朗李 Michael Brownlee
       卡米莉亞·莫內特 Camillia Monet
       艾米·萊安 Amy Ryan
       丹尼·霍奇 Danny Hoch


◎標  簽 科幻 | 災難 | 美國 | 斯皮爾伯格 | 湯姆·克魯斯 | 美國電影 | TomCruise | StevenSpielberg

◎簡  介  

  雷?費瑞爾(湯姆?克魯斯 Tom Cruise 飾)和妻子離婚了,一兒一女都跟母親生活——因為他的的貪玩懶散,疏忽責任,這個家庭才如此支離破碎。一場外星人入侵的災難卻讓他們重新建立起親密的的關系。
  這天妻子繁忙,只好把兒女交給雷照顧。電閃雷鳴天色灰暗,一切好像有些異樣。 果然,馬路上赫然一個龐大的三腳飛行器掘地而起,邪惡的火星人光顧了這個本來平靜的小鎮。人們四處逃亡,雷也帶著女兒奔走逃命,開始了生死歷險。當局想盡辦法對付外星人,卻屢屢失敗,整個世界都陷入了恐慌當中。
  有了父愛的本能,平日吊兒郎當的父親變得英勇頑強,保護兒女成了他支撐他的動力和信念。

◎獲獎情況  

  第78屆奧斯卡金像獎(2006)
  最佳視覺效果(提名) 巴勃羅·赫爾曼 / 丹尼斯·穆倫 / 蘭迪·杜特拉 / 丹尼爾·薩迪克
  最佳混音(提名) 安迪·尼爾森 / 安娜·貝爾莫 / 朗·賈金斯
  最佳音效剪輯(提名) 理查德·金

  第15屆MTV電影獎(2006)
  MTV電影獎 最佳驚恐戲表演(提名) 達科塔·范寧
Video #1
ID                                       : 1
ID in the original source medium         : 4113 (0x1011)
Format                                   : HEVC
Format/Info                              : High Efficiency Video Coding
HDR format                               : SMPTE ST 2086, HDR10 compatible
Codec ID                                 : V_MPEGH/ISO/HEVC
Duration                                 : 1 h 56 min
Bit rate                                 : 55.3 Mb/s
Width                                    : 3 840 pixels
Height                                   : 2 160 pixels
Display aspect ratio                     : 16:9
Frame rate mode                          : Constant
Frame rate                               : 23.976 (24000/1001/189150) FPS
Color space                              : YUV
Chroma subsampling                       : 4:2:0 (Type 2)
Bit depth                                : 10 bits
Bits/(Pixel*Frame)                       : 0.278
Stream size                              : 45.0 GiB (72%)
Title                                    : War.of.the.Worlds.2005.2160p.BluRay.REMUX.HEVC.DTS-HD.MA.TrueHD.7.1.Atmos-FGT
Language                                 : English
Default                                  : Yes
Forced                                   : No
Color range                              : Limited
Color primaries                          : BT.2020
Transfer characteristics                 : PQ
Matrix coefficients                      : BT.2020 non-constant
Mastering display color primaries        : Display P3
Mastering display luminance              : min: 0.0001 cd/m2, max: 1000 cd/m2
Maximum Content Light Level              : 993 cd/m2
Maximum Frame-Average Light Level        : 419 cd/m2
Original source medium                   : Blu-ray

Text #26
ID                                       : 43
ID in the original source medium         : 4792 (0x12B8)
Format                                   : PGS
Muxing mode                              : zlib
Codec ID                                 : S_HDMV/PGS
Codec ID/Info                            : Picture based subtitle format used on BDs/HD-DVDs
Duration                                 : 1 h 55 min
Bit rate                                 : 16.3 kb/s
Count of elements                        : 2162
Stream size                              : 13.4 MiB (0%)
Title                                    : Thai-PGS
Language                                 : Thai
Default                                  : No
Forced                                   : No
Original source medium                   : Blu-ray

Menu
00:00:00.000                             : en:Chapter 01
00:04:16.005                             : en:Chapter 02
00:08:18.247                             : en:Chapter 03
00:13:17.379                             : en:Chapter 04
00:19:19.741                             : en:Chapter 05
00:25:29.277                             : en:Chapter 06
00:29:44.949                             : en:Chapter 07
00:34:32.570                             : en:Chapter 08
00:38:47.033                             : en:Chapter 09
00:43:53.255                             : en:Chapter 10
00:49:03.649                             : en:Chapter 11
00:55:17.022                             : en:Chapter 12
00:59:21.015                             : en:Chapter 13
01:04:44.171                             : en:Chapter 14
01:10:37.233                             : en:Chapter 15
01:15:53.048                             : en:Chapter 16
01:20:28.990                             : en:Chapter 17
01:24:47.791                             : en:Chapter 18
01:29:03.963                             : en:Chapter 19
01:33:59.884                             : en:Chapter 20
01:36:59.605                             : en:Chapter 21
01:41:07.186                             : en:Chapter 22
01:45:27.404                             : en:Chapter 23
01:49:42.242                             : en:Chapter 24



                                                                                                                                                                                                        
                                                                                                                                                                                                                                                                                                                                                                                                                                                                                                                                                                                                                                                                                                                                                                                                                                                       aac46c7dd1a08078a88df2b1f65dc48a.torrent (156.61 KB, 下載次數: 0)

回復

使用道具 舉報

小黑屋|百度云資源論壇 |網站地圖

本網站所有資源來自網絡,如無意中侵犯了您的權益,請發郵件至 [email protected],立即清除相關鏈接

GMT+8, 2020-8-30 14:11 , Processed in 0.093798 second(s), 20 queries .

Powered by Discuz! X3.2

© 2001-2013 Comsenz Inc.

快速回復 返回頂部 返回列表
江苏11选5走势图