百度云資源論壇

 找回密碼
 立即注冊
搜索
打印 上一主題 下一主題

[BD-4K] 車速過快 Spree.2020.2160p.WEB.H265-HUZZAH 9.57GB

[復制鏈接]
跳轉到指定樓層
樓主
帖子完整標題:車速過快 Spree.2020.2160p.WEB.H265-HUZZAH 9.57GB




◎譯  名 車速過快
◎片  名 Spree
◎年  代 2020
◎產  地 美國
◎類  別 喜劇 / 驚悚
◎語  言 英語
◎上映日期 2020-01-24(圣丹斯電影節) / 2020-08-14(美國)
◎片  長 93分鐘
◎導  演 Eugene Kotlyarenko
◎編  劇 Eugene Kotlyarenko / Gene McHugh
◎主  演 喬·基瑞 Joe Keery
       薩西爾·扎瑪塔 Sasheer Zamata
       大衛·阿奎特 David Arquette
       凱爾·穆尼 Kyle Mooney
       米莎·巴頓 Mischa Barton
       拉拉·肯特 Lala Kent
       約翰·德盧卡 John DeLuca
       杰薩琳·吉爾西格 Jessalyn Gilsig
       肖恩·艾弗里 Sean Avery
       Frankie Grande
       Joshua Ovalle
       Reatha Grey
       Caroline Hebert
       Sunny Kim
       Linas Phillips
       Randy Vasquez


◎標  簽 驚悚 | 美國 | 2020 | 喜劇 | 恐怖 | 電影 | R-美國 | Eugene_Kotlyarenko

◎簡  介   

  影片由尤金·科特亞倫科執導,《怪奇物語》演員喬·基瑞主演,他在片中扮演的是一個為了尋求刺激,在網上直播虐待乘客的網約車司機。
Video
ID                                       : 1
Format                                   : HEVC
Format/Info                              : High Efficiency Video Coding
Codec ID                                 : V_MPEGH/ISO/HEVC
Duration                                 : 1 h 32 min
Bit rate                                 : 14.5 Mb/s
Width                                    : 3 840 pixels
Height                                   : 2 160 pixels
Display aspect ratio                     : 16:9
Frame rate mode                          : Constant
Frame rate                               : 23.976 (24000/1001/189150) FPS
Color space                              : YUV
Chroma subsampling                       : 4:2:0
Bit depth                                : 8 bits
Bits/(Pixel*Frame)                       : 0.073
Stream size                              : 9.40 GiB (98%)
Default                                  : Yes
Forced                                   : No
Color range                              : Limited
Color primaries                          : BT.709
Transfer characteristics                 : BT.709
Matrix coefficients                      : BT.709

Audio
ID                                       : 2
Format                                   : E-AC-3
Format/Info                              : Enhanced AC-3
Commercial name                          : Dolby Digital Plus
Codec ID                                 : A_EAC3
Duration                                 : 1 h 32 min
Bit rate mode                            : Constant
Bit rate                                 : 256 kb/s
Channel(s)                               : 6 channels
Channel layout                           : L R C LFE Ls Rs
Sampling rate                            : 48.0 kHz
Frame rate                               : 31.250 FPS (1536 SPF)
Compression mode                         : Lossy
Stream size                              : 169 MiB (2%)
Language                                 : English
Service kind                             : Complete Main
Default                                  : Yes
Forced                                   : No

Text
ID                                       : 3
Format                                   : UTF-8
Codec ID                                 : S_TEXT/UTF8
Codec ID/Info                            : UTF-8 Plain Text
Duration                                 : 1 h 28 min
Bit rate                                 : 93 b/s
Count of elements                        : 1896
Stream size                              : 61.1 KiB (0%)
Language                                 : English
Default                                  : No
Forced                                   : No





e281211a2e885f6274bf3d63e89ab293.zip (49.23 KB, 下載次數: 0)

回復

使用道具 舉報

小黑屋|百度云資源論壇 |網站地圖

本網站所有資源來自網絡,如無意中侵犯了您的權益,請發郵件至 [email protected],立即清除相關鏈接

GMT+8, 2020-8-30 17:48 , Processed in 0.091717 second(s), 20 queries .

Powered by Discuz! X3.2

© 2001-2013 Comsenz Inc.

快速回復 返回頂部 返回列表
江苏11选5走势图